Escuadron De Heroes [BDRip 720p][LATINO 5.1]DTS[En-US][Sub][Bélico][2013] Descargar Gratis

Escuadron De Heroes [BDRip 720p][LATINO 5.1]DTS[En-US][Sub][Bélico][2013] Descargar Gratis descargar en 1 link, ver online, dvdrip, castellano, español latino, full HD, subtitulos español, rapidshare, torrent, mediafire, MEGA


Escuadron De Heroes [BDRip 720p][LATINO 5.1]DTS[En-US][Sub][Bélico][2013]


Ficha Técnica
Company of Heroes
Escuadron De Heroes
AÑO: 2013
DURACIÓN: 100 min
PAÍS: Estados Unidos
DIRECTOR: Don Michael Paul
GUIÓN: David Reed
REPARTO: Brian Glanney, Chad Michael Collins, Dimitri Diatchenko, Jurgen Prochnow, Melia Kreiling, Neal McDonough, Richard Sammel, Tom Sizemore, Vinnie Jones
PRODUCTORA: Sony Pictures Home Entertainment
GÉNERO: Accion, Bélica

Sinopsis
Durante la última gran ofensiva alemana en la Segunda Guerra Mundial, una compañía de soldados americanos se pierde detrás de las líneas enemigas durante la Batalla de las Ardenas y hacen un descubrimiento horrible, Hitler tiene una bomba super en desarrollo. Los soldados pronto aprenderá acerca de una misión secreta para recuperar un aliado científico desertor alemán a cargo de un programa de las armas de Hitler. Frente a situaciones imposibles, la empresa y un escape de prisioneros de guerra ir en una audaz incursión en el corazón de la Alemania nazi en la búsqueda del científico.

Datos Técnicos


Código:
General
Format : Matroska
Format version : Version 2
File size : 5.89 GiB
Duration : 1h 40mn
Overall bit rate : 8 394 Kbps
Movie name : CadagotoHD.Com ¡Visítanos!
Encoded date : UTC 2013-02-20 16:02:56
Writing application : mkvmerge v3.4.0 (‘Rapunzel’) built on May 15 2010 09:38:20
Writing library : libebml v0.8.0 + libmatroska v0.9.0
Attachment : Yes

Video
ID : 1
Format : AVC
Format/Info : Advanced Video Codec
Format profile : [email protected]
Format settings, CABAC : Yes
Format settings, ReFrames : 5 frames
Codec ID : V_MPEG4/ISO/AVC
Duration : 1h 40mn
Bit rate : 6 266 Kbps
Width : 1 280 pixels
Height : 720 pixels
Display aspect ratio : 16:9
Frame rate mode : Constant
Frame rate : 23.976 fps
Color space : YUV
Chroma subsampling : 4:2:0
Bit depth : 8 bits
Scan type : Progressive
Bits/(Pixel*Frame) : 0.284
Stream size : 4.27 GiB (72%)
Title : CadagotoHD.Com ¡Visítanos!
Writing library : x264 core 129 r2230 1cffe9f
Encoding settings : cabac=1 / ref=5 / deblock=1:0:0 / analyse=0×3:0×113 / me=umh / subme=7 / psy=1 / psy_rd=1.00:0.00 / mixed_ref=1 / me_range=16 / chroma_me=1 / trellis=1 / 8x8dct=1 / cqm=0 / deadzone=21,11 / fast_pskip=1 / chroma_qp_offset=-2 / threads=16 / lookahead_threads=2 / sliced_threads=0 / nr=0 / decimate=1 / interlaced=0 / bluray_compat=0 / constrained_intra=0 / bframes=3 / b_pyramid=2 / b_adapt=1 / b_bias=0 / direct=3 / weightb=1 / open_gop=0 / weightp=2 / keyint=240 / keyint_min=23 / scenecut=40 / intra_refresh=0 / rc_lookahead=50 / rc=abr / mbtree=1 / bitrate=6266 / ratetol=1.0 / qcomp=0.60 / qpmin=0 / qpmax=69 / qpstep=4 / ip_ratio=1.40 / aq=1:1.00
Language : English
Default : No
Forced : No

Audio #1
ID : 2
Format : AC-3
Format/Info : Audio Coding 3
Mode extension : CM (complete main)
Format settings, Endianness : Big
Codec ID : A_AC3
Duration : 1h 40mn
Bit rate mode : Constant
Bit rate : 640 Kbps
Channel(s) : 6 channels
Channel positions : Front: L C R, Side: L R, LFE
Sampling rate : 48.0 KHz
Bit depth : 16 bits
Compression mode : Lossy
Stream size : 460 MiB (8%)
Title : Audio Español Latino AC3 5.1
Language : Spanish
Default : Yes
Forced : Yes

Audio #2
ID : 3
Format : DTS
Format/Info : Digital Theater Systems
Mode : 16
Format settings, Endianness : Big
Codec ID : A_DTS
Duration : 1h 40mn
Bit rate mode : Constant
Bit rate : 1 509 Kbps
Channel(s) : 6 channels
Channel positions : Front: L C R, Side: L R, LFE
Sampling rate : 48.0 KHz
Bit depth : 24 bits
Compression mode : Lossy
Delay relative to video : 11ms
Stream size : 1.06 GiB (18%)
Title : Audio Ingles DTS
Language : English
Default : No
Forced : No

Text #1
ID : 4
Format : UTF-8
Codec ID : S_TEXT/UTF8
Codec ID/Info : UTF-8 Plain Text
Language : English
Default : No
Forced : No

Text #2
ID : 5
Format : VobSub
Muxing mode : zlib
Codec ID : S_VOBSUB
Codec ID/Info : The same subtitle format used on DVDs
Title : Subtitulos Español Latino
Language : Spanish
Default : No
Forced : No

Text #3
ID : 6
Format : UTF-8
Codec ID : S_TEXT/UTF8
Codec ID/Info : UTF-8 Plain Text
Title : Forzados
Language : Spanish
Default : Yes
Forced : Yes

Menu
00:00:00.000 : en:00:00:00.000
00:05:59.401 : en:00:05:59.401
00:11:24.809 : en:00:11:24.809
00:15:57.290 : en:00:15:57.290
00:22:15.876 : en:00:22:15.876
00:28:56.860 : en:00:28:56.860
00:34:36.533 : en:00:34:36.533
00:42:13.740 : en:00:42:13.740
00:46:32.790 : en:00:46:32.790
00:53:27.371 : en:00:53:27.371
00:59:41.620 : en:00:59:41.620
01:05:14.911 : en:01:05:14.911
01:11:46.385 : en:01:11:46.385
01:19:12.748 : en:01:19:12.748
01:23:54.780 : en:01:23:54.780
01:28:59.125 : en:01:28:59.125


















Adquiere Tu Cuenta Premium Aqui , así Ayudarás A Seguir aportando!
AQUI : http://down.identil.org/decode.php?h=aHR0cDovL3VsLnRvL3JlZi8yMTQ0MjYz
Compra Tu Premiun de 3 – 6 Meses – 1 Año y Descarga sin Limites De Velocidad!
Si Ya Tienes Cuenta En Ul.to y deseas ayudar , registrate con un E-Mail totalmente nuevo ,Gracias !

AQUI : http://down.identil.org/decode.php?h=aHR0cDovL3VsLnRvL3JlZi8yMTQ0MjYz

Links De 500 Mb!
¡Descargar Los Enlaces AQUI!
http://down.identil.org/decode.php?h=aHR0cDovL3MybC5iaXovbjFjMmppbWl6NHY1





Utiliza los Archivos .REV si tienes problema con 1,2,3 archivos en su descarga , Esté off o corruptos

Si necesitas 2 archivos , Bajas 2 REV y los reconstruirán Cualquiera que fuesen los que te falten !
Escuadron De Heroes [BDRip 720p][LATINO 5.1]DTS[En-US][Sub][Bélico][2013] Descargar Gratis descargar en 1 link, ver online, dvdrip, castellano, español latino, full HD, subtitulos español, rapidshare, torrent, mediafire, MEGA

    - descarga pelicula escuadron de heroes por torrent gratis - descargar escuadron de heroes full hd 1 link gratis

Deja un comentario