(DVDRip) Fast And Furious 6 (2013) NEW CAM AUDiO V2+500MiB Descargar Gratis 1 link

(DVDRip) Fast And Furious 6 (2013) NEW CAM AUDiO V2+500MiB Descargar Gratis 1 link castellano, full HD, dvdrip, 1 link, descarga directa, rmvb, español latino, subtitulada, torrent, mf, mediafire, MEGA

Fast And Furious 6 (2013) NEW CAM AUDiO V2+500MiB

>> Fast And Furious 6 2013 CAM NEW AUDiO XViD – JUSTiCE <<


iMDB



Código:
http://www.imdb.com/title/tt1905041/
• iNFO



Código:
Video
ID : 0
Format : MPEG-4 Visual
Format profile : Advanced Simple@L5
Format settings, BVOP : 2
Format settings, QPel : No
Format settings, GMC : No warppoints
Format settings, Matrix : Default (H.263)
Muxing mode : Packed bitstream
Codec ID : XVID
Codec ID/Hint : XviD
Duration : 2h 0mn
Bit rate : 1 689 Kbps
Width : 720 pixels
Height : 304 pixels
Display aspect ratio : 2.35:1
Frame rate : 50.000 fps
Color space : YUV
Chroma subsampling : 4:2:0
Bit depth : 8 bits
Scan type : Progressive
Compression mode : Lossy
Bits/(Pixel*Frame) : 0.154
Stream size : 1.43 GiB (92%)
Writing library : XviD 64

Audio
ID : 1
Format : MPEG Audio
Format version : Version 1
Format profile : Layer 3
Mode : Joint stereo
Mode extension : MS Stereo
Codec ID : 55
Codec ID/Hint : MP3
Duration : 2h 0mn
Bit rate mode : Constant
Bit rate : 128 Kbps
Channel(s) : 2 channels
Sampling rate : 44.1 KHz
Compression mode : Lossy
Stream size : 111 MiB (7%)
Alignment : Split accross interleaves
Interleave, duration : 20 ms (1.00 video frame)
Interleave, preload duration : 500 ms


• SCREEN’s









Download:


Código:
http://***********.net/file/v8b7kcr7/Fast.And.Furious.6.2013.CAM.NEW.AUDiO.XViD.-.JUSTiCE.avi
or
http://***********.net/file/rzkih942/Fast.And.Furious.6.2013.CAM.NEW.AUDiO.XViD.-.JUSTiCE.rar



==================================

>> Fast And Furious 6 (2013) CAM x264 (500 MB) <<

• iNFO



Código:
Genre: Action | Crime | Thriller
Stars : Dwayne Johnson, Vin Diesel, Paul Walker
Quality: CAM
Encoder: SHQ
Source: 720p CAM-TheCod3r
Size: 526756207 bytes (502.35 MiB), duration: 02:00:46, avg.bitrate: 582 kb/s
Audio: aac, 48000 Hz, stereo
Video: h264, yuv420p, 720×400, 50.00 fps(r)
• SCREEN’s







Download:


Código:
http://***********.net/file/psn3rdaq/fastanfurios6cam.rar
or
http://***********.net/file/fmtl9jm7/fastanfurios6cam.mkv
(DVDRip) Fast And Furious 6 (2013) NEW CAM AUDiO V2+500MiB Descargar Gratis 1 link castellano, full HD, dvdrip, 1 link, descarga directa, rmvb, español latino, subtitulada, torrent, mf, mediafire, MEGA

    - Descarga de fast & furious 6 audio latino HD - descargar rapido y furioso 6 Xvid - fast and furious 6 latino dvdrip 1 link

Deja un comentario